#TITLE:Trolls In the Dark;
#SUBTITLE:;
#ARTIST:Rhapsody;
#TITLETRANSLIT:;
#SUBTITLETRANSLIT:;
#ARTISTTRANSLIT:;
#CREDIT:;
#BANNER:Trolls In The Dark.png;
#BACKGROUND:Trolls In The Dark-bg.png;
#LYRICSPATH:;
#CDTITLE:kire.png;
#MUSIC:Trolls In The Dark.mp3;
#OFFSET:0.000;
#SAMPLESTART:21.550;
#SAMPLELENGTH:12.000;
#SELECTABLE:YES;
#BPMS:0.000=90.000,29.000=45.000,29.500=90.000,32.000=180.000,62.500=90.000,63.500=180.000,93.500=90.000,96.500=180.000,212.500=90.000,214.000=180.000,245.000=90.000,245.250=45.000,245.500=180.000,276.000=90.000,279.000=180.000,395.000=90.000,397.000=180.000;
#STOPS:29.500=0.180
,32.000=0.020
,397.500=0.340
,400.500=0.340
;
#BGCHANGES:;
// cache tags:
#FIRSTBEAT:14.500;
#LASTBEAT:403.000;
#SONGFILENAME:Songs/Music V.I.P ^_^/Trolls In The Dark- Kire/Trolls In The Dark.sm;
#HASMUSIC:1;
#HASBANNER:1;
#MUSICLENGTH:152.293;
// end cache tags

//---------------dance-single - ----------------
#NOTES:
     dance-single:
     :
     Hard:
     12:
     1.000,1.000,0.860,0.315,0.952,979.000,131.000,48.000,0.000,0.000:
0000
0000
0000
0000
,
0000
0000
0000
0000
,
0000
0000
0000
0000
,
0000
0000
0000
0000
0000
0002
2003
3200
,
0302
0203
0020
0300
0032
0203
0302
2003
,
3002
0000
0023
0000
0200
0000
0030
0000
2000
0300
3020
0000
0230
0000
0302
0000
,
0023
0000
0230
0000
2000
0000
0300
0000
3002
0000
0203
0000
0302
0000
0023
0030
,
2100
0000
0020
0000
0000
0000
0000
3030
,
1001
1000
0100
0010
1001
0010
0000
1000
,
0001
1001
0100
1000
0001
1010
0000
0010
,
1000
0101
0100
1000
0100
0010
0000
1000
,
0001
0000
1001
0000
1000
0000
0001
0000
0010
0000
0101
0000
0000
0000
1000
0100
,
0010
0001
2002
0000
0000
0000
3000
0000
1003
0000
0001
0000
0010
0000
1001
0000
,
0000
1002
0000
0000
1003
0001
1000
0001
,
0010
0000
0001
1000
0001
0000
1000
0000
0100
0000
0010
0100
1000
0000
0001
0000
,
0100
0010
0001
0010
0100
1000
0001
0010
0100
1000
0020
0000
0000
0030
1010
0000
,
0010
0011
0001
1010
0010
1100
0100
1010
,
0010
0101
0100
1001
0100
0110
0100
1001
,
0010
0110
0100
1001
0001
0011
0100
1001
,
0001
0000
1010
0000
0001
0000
1001
0000
0000
0000
1000
0001
1000
0010
1002
0000
,
0000
0000
0010
1000
0010
1000
0003
2001
,
0000
0000
0000
0000
0010
0000
0001
0000
0010
0000
3100
0000
0001
0000
1000
0100
,
0010
0001
0010
0100
0010
0001
0100
0010
1000
0100
1000
0100
0010
0100
1000
0010
,
0100
0001
0010
0100
1000
0100
0020
0000
0000
0000
0000
0000
0030
0100
0010
0100
,
0010
0100
1000
0100
0010
0001
0100
0010
1000
0010
0100
0001
0010
0100
1000
0010
,
1000
0001
1000
0100
1000
0100
0010
0001
0010
0100
1000
0000
0010
0000
0100
0000
,
0001
0000
1000
0100
1000
0010
1000
0001
1000
0100
0010
0001
0010
0100
1000
0010
,
0100
0001
0100
0010
0001
0010
0100
0010
0001
0010
0100
0000
1000
0000
1000
0000
,
0100
0000
0010
0001
0100
0001
1000
0100
0001
0100
0010
0001
0010
0100
0010
0100
,
0010
1000
0010
0001
0010
0100
1000
0001
0010
0100
0010
0000
0001
0000
0100
0000
,
0001
0000
1000
0010
0001
0010
0100
0001
0100
0001
0100
0010
1000
0100
0010
0001
,
0100
0010
1000
0100
1010
0000
0000
0000
0001
0000
0010
0000
0001
0000
1000
0000
,
0001
1001
1001
0000
0010
1001
1001
0000
,
0100
0110
0110
0000
1000
0010
1000
0001
,
0100
0011
0011
0000
1000
1100
1100
0000
,
0100
0000
0101
0000
0001
0010
0100
0000
0001
0000
1020
0000
0000
0000
0000
0000
,
0030
1000
0001
1000
0001
1001
1001
0000
,
0010
0110
0110
0000
1001
0110
1001
0000
,
0010
0001
1000
0001
0010
1001
1001
0000
,
1000
0000
0101
0000
0101
0000
0000
0000
0010
0000
0001
0010
0100
0000
1000
0000
,
0100
0010
0000
1001
0000
0010
1001
0001
,
1000
0000
1000
0001
1000
0010
1000
0100
1000
0010
0100
1000
0100
1000
0100
0010
,
0100
0001
0010
1000
0010
0100
0010
0100
0010
0001
1000
0000
0100
0000
1000
0000
,
0001
0000
1000
0010
1000
0001
1000
0001
1000
0001
1000
0100
0001
0100
1000
0100
,
1000
0100
0001
0100
0010
0001
0100
0010
1000
0010
0100
0000
0010
0000
0001
0000
,
0100
0000
0010
0100
1000
0100
0010
0001
0010
0100
1000
0010
0100
0001
1000
0100
,
1000
0100
1000
0010
1000
0010
1000
0100
0010
0001
0010
0000
1000
0000
0100
0000
,
1000
0000
1000
0100
0001
0100
1000
0100
0010
0100
0001
0100
1000
0100
0010
0001
,
0010
0100
1000
0001
1100
0000
0100
0000
0010
0000
0001
0000
0100
0000
0010
0000
,
1000
0000
1001
0100
0010
0100
0010
0100
0010
0100
1001
0010
0100
0001
0010
0100
,
1000
0100
1010
0100
1000
0100
1000
0100
1000
0100
1010
0001
0010
0001
0010
0001
,
0010
0001
1010
1000
0010
1000
1001
0100
0010
0001
0110
1000
0100
1000
0110
1000
,
0100
1000
0101
0010
0100
0010
0101
0010
0100
1000
0010
0000
0100
0000
1000
0000
,
0001
0220
0000
0000
0330
0101
1001
0100
,
0010
0001
1001
0000
1000
0100
0011
0100
,
0001
0010
0101
0000
1001
0000
1010
0001
,
0100
0001
0011
0000
1000
0100
1001
1000
,
0001
0000
0010
0000
1001
0000
0000
0000
1000
0001
1000
0001
2002
0000
0000
0000
,
0003
3001
1000
0001
0010
0000
2002
0000
,
3000
0000
0013
0000
0100
0000
1000
0000
0100
0000
0010
0000
1000
0001
1000
0000
,
0001
0000
0010
0000
0100
1000
0100
0000
0001
0000
1000
0010
0100
0001
0010
0100
,
1000
0100
0010
0001
0200
0000
0301
0000
1000
0000
0001
0000
1000
0000
0001
0000
,
1001
0000
1000
0100
0010
0001
0100
0001
,
0101
0000
1010
1000
0100
1000
1000
0100
,
0101
0000
0010
0001
0011
0010
0100
1000
,
1010
0000
0000
0000
1000
0100
0010
1000
0202
0000
0000
0000
0300
0000
0013
0000
,
0001
1000
1001
0000
2000
0000
0000
3001
,
1000
0000
0001
0000
1000
0000
0001
0000
1000
0001
1000
0000
0001
0000
0100
0000
,
0001
0010
0001
0000
0010
0000
0001
0000
0010
0001
0010
0100
1000
0100
1000
0100
,
2020
0000
0000
0000
0000
0000
3000
1030
0001
0010
0100
0010
0100
0010
0100
0010
,
0100
0010
0100
0010
0001
0100
0001
0010
0001
0100
0001
1000
0100
0010
0100
1000
,
0100
0001
0100
1000
0001
0000
0010
0000
0100
0000
1000
0000
0010
1000
0010
1000
,
0001
1000
0100
0010
0001
1000
0001
0100
0001
0100
0001
0010
0100
1000
0100
0001
,
0100
0001
0100
1000
0001
0000
1000
0000
0100
0000
0010
0000
0001
0010
0001
0010
,
0100
1000
0100
0010
0001
0100
0010
1000
0001
0100
0010
1000
0010
0100
0001
0100
,
0010
1000
0100
0010
0001
0000
1000
0000
0100
0000
0010
0000
0001
1000
0010
1000
,
0100
1000
0010
1000
0010
1000
0001
1000
0001
1000
0010
1000
0101
0000
0010
0000
,
1000
1000
0001
0010
0100
1000
1001
1001
,
0000
0100
0011
0011
0000
1000
0110
0110
,
0000
0100
0001
0010
0100
1000
1001
1001
,
0000
0000
1000
0000
1100
0000
1100
0000
0000
0000
1000
0000
0100
0010
0001
0000
,
0010
1000
0101
0000
1000
0000
0001
0010
,
0100
1000
1001
1001
0000
0010
1100
1100
,
0000
1000
0110
0110
0000
0100
0001
0010
,
0100
1000
1001
1001
0000
0010
1100
1100
,
0000
0000
1000
0000
0010
1000
0100
0000
0001
0000
0010
0000
0100
0000
0000
0000
,
0000
0000
0000
0000
1000
0000
0010
0000
0100
0000
0001
0000
1000
0100
0010
0001
,
0100
0010
1000
0010
0100
0001
1000
0001
1000
0001
0100
0010
1000
0100
1000
0100
,
0010
0100
0010
0001
0010
0000
0100
0000
0010
0000
0001
0000
1000
0001
1000
0100
,
1000
0100
1000
0001
1000
0010
1000
0100
0010
0001
1000
0001
1000
0001
0100
0001
,
0010
0001
0010
0100
1000
0000
0010
0000
1000
0000
0100
0000
0010
0100
0010
0100
,
0010
0001
0010
1000
0010
0001
0010
0100
0010
0100
0010
0001
0010
1000
0010
0100
,
0010
0100
0010
0001
0010
0000
1000
0000
0100
0000
1000
0000
1000
0100
0010
0001
,
0100
0010
1000
0100
0010
0001
0100
0010
1000
0100
0010
0001
1010
0000
0101
0000
,
0000
0000
0000
0000
1000
0000
0001
0000
1000
0000
0001
0000
1000
0001
1000
0001
,
1000
0001
1000
0001
1010
0100
0010
0100
0010
0100
0010
0100
1010
0010
1000
0010
,
1000
0010
1000
0010
0101
0100
0001
0100
0001
0100
0001
0100
1100
1000
0100
1000
,
0011
0010
0001
0010
0110
0100
1000
0100
0110
0100
0010
0100
1001
0010
0100
1000
,
1100
0010
0001
0100
0011
1000
0010
0100
1001
0000
0110
0000
2002
0000
0000
0000
,
0000
3003
0110
1001
1001
1001
0100
0010
,
1001
0000
1001
0000
1000
0001
1000
0100
0010
0001
0010
0100
1001
0000
0000
0000
;

//---------------dance-single - ----------------
#NOTES:
     dance-single:
     :
     Challenge:
     8:
     0.613,0.959,0.131,0.499,0.013,557.000,20.000,76.000,0.000,0.000:
0000
0000
0000
0000
,
0000
0000
0000
0000
,
0000
0000
0000
0000
,
0000
0000
0000
0000
0000
0002
2003
3002
,
0023
0230
2300
0000
3020
0230
0302
0023
,
0032
2003
3200
0000
2300
3020
0230
0320
,
2030
3200
0020
0300
0032
0203
0302
0023
,
0230
0000
2000
0000
0000
0000
0000
3300
,
1000
0001
0010
0100
2000
0002
0000
3003
,
1000
0100
1000
0100
0010
0200
0000
0301
,
0010
0100
1000
0010
0200
0020
0000
0300
,
1030
0010
0001
0010
0100
2000
0000
3001
,
0020
0002
0000
0030
1003
0010
0100
0002
,
0000
0023
0000
0000
0130
1000
0100
1000
,
0001
2000
0000
3002
0000
0023
0000
0130
,
0000
0000
1000
0000
0010
0000
0100
0000
0001
0000
0200
0000
0000
0300
1000
0000
,
0001
0010
0100
2000
0000
3001
0100
0001
,
0100
0001
0010
0100
0000
1000
0010
0100
,
0001
0010
0100
1000
0000
0010
0001
0010
,
1000
0100
0001
0100
0000
0010
0001
0200
,
0000
0300
0001
0010
0100
1000
0000
0002
,
0000
0000
1003
0100
0010
0001
0100
0001
,
0000
0010
0000
0100
0000
1000
0000
0010
,
0100
0000
0001
0000
0010
0000
0200
0000
0000
0000
0000
0000
0000
0000
0300
1000
,
0100
0010
0001
0000
0000
0000
1000
0000
0000
0000
0100
0000
0000
0000
0010
0000
,
0000
0001
1000
0010
0100
0001
0010
0100
,
1000
0001
0000
0100
0000
0001
0000
0010
,
0000
0100
1000
0010
0100
0001
0010
0100
,
1000
0010
0000
0100
0000
0001
0000
0010
,
0000
0100
1000
0010
0100
0001
0010
0100
,
1000
0010
0000
0100
0000
0001
0000
1000
,
0000
0100
0010
0000
0000
0001
0100
0001
,
0100
0001
0010
0000
0100
1000
0010
0000
,
0100
0001
0010
0000
0100
1000
0010
0000
,
0100
0001
0010
0000
1000
0010
0001
0000
,
0100
0001
0010
0100
1000
0010
0000
0000
,
0000
1000
0010
0100
0001
0010
0100
0000
,
1000
0001
0100
0000
0001
0010
0100
0000
,
1000
0010
0100
0000
0001
0010
0100
0000
,
1000
0010
0100
0000
0001
0010
0100
1000
,
0001
1001
0000
1001
0000
1001
1000
0100
,
0010
0001
0000
0100
0000
0001
0000
0010
,
0000
0100
1000
0010
0100
0001
0010
0100
,
1000
0010
0000
0100
0000
0001
0000
0010
,
0000
1000
0100
0010
0001
0100
0001
0010
,
0100
1000
0000
0010
0000
0100
0000
0001
,
0000
0010
0100
1000
0100
0010
0001
0100
,
0001
0010
0000
0100
0000
1000
0000
0010
,
0000
0100
1001
0000
0000
0000
0000
0000
,
0000
2000
0000
0000
0000
0002
0000
0000
,
3000
0020
0003
0000
0000
0200
0000
0000
,
0330
1001
0000
0101
0000
0110
0000
1010
,
0000
0101
0000
0101
0000
0010
0100
1000
,
0001
2002
0000
3003
0000
0001
0010
0100
,
1000
0001
0100
0000
0001
0010
0100
1000
,
0010
0100
0001
0000
0010
0100
1000
0001
,
0100
0001
0020
0000
0031
1000
0010
0100
,
0010
1000
0002
0000
0013
0001
2000
0000
,
0000
3001
1000
0001
0010
0000
0200
0000
,
0000
1300
0001
0100
0001
0010
0200
0000
,
2300
0000
3002
0000
0103
0000
0001
0010
,
0100
0000
1000
0000
2002
3003
0000
0000
1000
0000
0001
0000
0010
0000
0100
0000
,
1000
0000
0001
0100
0001
0010
0100
1000
,
0010
0000
0100
0001
0010
0100
1000
0001
,
0100
0000
0001
1000
0100
0010
0001
0100
,
0001
0000
1000
0100
0200
0000
0000
0310
,
1000
0010
0100
0000
0002
0000
0000
0013
,
0100
1000
0001
0100
0002
0000
0013
0000
,
0200
0000
1300
0000
0010
0100
0001
0010
,
0200
0000
0000
0000
0000
0000
0000
0300
1000
0001
0010
0100
1000
0000
0000
0000
,
0001
0000
0010
0000
0100
0000
1000
0010
,
0100
0001
0010
0100
1000
0001
0100
0000
,
0001
0000
0010
0000
0100
0000
1000
0010
,
0100
0001
0010
0100
1000
0010
0100
0000
,
0001
0000
0010
0000
0100
0000
1000
0010
,
0100
0001
0010
0100
1000
0010
0100
0000
,
0001
0000
0010
0000
0100
0000
1000
0001
,
0000
0000
1000
0001
1000
0001
0010
0001
,
0000
1000
0010
0100
0000
0001
0010
0100
,
0000
1000
0010
0100
0000
0001
0010
0100
,
0000
1000
0001
0100
0000
0001
0010
0100
,
1000
0010
1000
0000
1010
0000
0101
0010
,
0001
0010
0100
1000
0000
0001
0100
0001
,
0000
0010
0100
1000
0000
0010
0100
0001
,
0000
0010
0100
1000
0000
0001
1000
0001
,
0000
0010
0001
0000
0101
0000
0101
0000
,
1010
0000
0100
0001
0010
0000
1100
0000
,
0001
0000
0010
0000
0100
0000
1000
0010
,
0100
0001
0010
0100
1000
0010
0100
1000
,
0001
0000
0010
0000
0100
0000
1000
0010
,
0100
0001
1000
0010
0100
0001
1000
0000
,
0100
0000
0010
0000
0001
0000
1000
0100
,
0010
0001
1000
0100
0010
0001
0100
0000
,
0001
0000
0100
0000
0010
0000
2000
0020
,
0000
3000
1030
0001
0010
0001
0000
0002
,
0000
2000
0003
0002
,
3000
0020
0003
0230
,
2300
0000
0020
3000
0230
0000
0002
0300
,
0013
0000
0100
1000
0100
0010
0200
0000
,
0000
0300
0001
0010
1000
0100
0010
0001
,
0100
1001
1000
0100
0010
0001
1001
0000
;
